1. Dismiss Notice
  2. Dismiss Notice

Agnes - Release Me NRJHITS 1080i HDTV DD2.0 H.264 IboYLDz-HDMania

Discussion in 'Performers video' started by CELOBRAZiL, Dec 1, 2019.

Random Thread
  1. CELOBRAZiL Vip on HQCC

    • V.I.P
    Joined:
    Jul 31, 2019
    Threads:
    236
    Messages:
    392
    Likes Received:
    214
    Location:
    Brazil
    Agnes - Release Me NRJHITS 1080i HDTV DD2.0 H.264 IboYLDz-HDMania

    [​IMG]



    Format : MPEG-TS
    File size : 211 MiB
    Duration : 4 min 11 s
    Overall bit rate mode : Variable
    Overall bit rate : 7 023 kb/s

    Video
    ID : 410 (0x19A)
    Menu ID : 8204 (0x200C)
    Format : AVC
    Format/Info : Advanced Video Codec
    Format profile : High@L4
    Format settings : CABAC / 4 Ref Frames
    Format settings, CABAC : Yes
    Format settings, RefFrames : 4 frames
    Codec ID : 27
    Duration : 4 min 11 s
    Bit rate : 6 482 kb/s
    Width : 1 920 pixels
    Height : 1 080 pixels
    Display aspect ratio : 16:9
    Frame rate : 25.000 FPS
    Standard : Component
    Color space : YUV
    Chroma subsampling : 4:2:0
    Bit depth : 8 bits
    Scan type : MBAFF
    Scan type, store method : Interleaved fields
    Scan order : Top Field First
    Bits/(Pixel*Frame) : 0.125
    Stream size : 194 MiB (92%)
    Color range : Limited
    Color primaries : BT.709
    Transfer characteristics : BT.709
    Matrix coefficients : BT.709

    Audio
    ID : 421 (0x1A5)
    Menu ID : 8204 (0x200C)
    Format : AC-3
    Format/Info : Audio Coding 3
    Commercial name : Dolby Digital
    Codec ID : 6
    Duration : 4 min 11 s
    Bit rate mode : Constant
    Bit rate : 192 kb/s
    Channel(s) : 2 channels
    Channel layout : L R
    Sampling rate : 48.0 kHz
    Frame rate : 31.250 FPS (1536 SPF)
    Bit depth : 16 bits
    Compression mode : Lossy
    Delay relative to video : -80 ms
    Stream size : 5.76 MiB (3%)
    Language : French
    Service kind : Complete Main


    Link(s):
    [​IMG]

    https://drive.google.com/file/d/1i4xZNaxBMsQooYWZ-ko09QhwqmGsvd-w/view?usp=sharing


    [​IMG] MIRROR #01

    https://drive.google.com/file/d/1lS7gR7vkpn3X5jWCiPy6j5yrIOIQeHYy/view?usp=sharing


    [​IMG] MIRROR #02

    https://drive.google.com/file/d/1Nk6vzNsCOctuH73k82mBLhS_irrgrPh_/view?usp=sharing


    [​IMG] MIRROR #03

    https://drive.google.com/file/d/1OaLo3QJ2VwW2xH0uEa3i92iz-MlhsqcL/view?usp=sharing


    [​IMG] MIRROR #04

    https://drive.google.com/file/d/1tt6mI3fDWFH7wKQYlNRQV0qmPTK-Rtl7/view?usp=sharing


    :: ZIPPYSHARE.COM ::

    FC3B59986BF9CE73811D0E82B4D6C991.7z


    :: FEX.NET ::

    https://fex.net/s/z3rsyn6



    Password: celobrazil
     
    • Like Like x 1
  2. OP
    OP
    CELOBRAZiL
    Adorable

    CELOBRAZiL Vip on HQCC

    • V.I.P
    Joined:
    Jul 31, 2019
    Threads:
    236
    Messages:
    392
    Likes Received:
    214
    Location:
    Brazil
    I love so much this music! :Pointing Above: :)
     
  3. kmfan Vip on HQCC

    • V.I.P
    Joined:
    Jul 10, 2019
    Threads:
    978
    Messages:
    1,222
    Likes Received:
    757
    Location:
    EU
    Thank you!
     
    • Like Like x 1
Loading...

Share This Page

Loading...