1. Dismiss Notice
  2. Dismiss Notice

Final da Conmebol Libertadores 2019 - Flamengo x River Plate [Nov-23-2019] FOXSPORTS 1080i HDTV DD2.0 H.264 CELOBRAZiL-HDMania

Discussion in 'Sports video' started by CELOBRAZiL, Nov 24, 2019.

Random Thread
  1. CELOBRAZiL Vip on HQCC

    • V.I.P
    Joined:
    Jul 31, 2019
    Threads:
    223
    Messages:
    375
    Likes Received:
    208
    Location:
    Brazil
    Final da Conmebol Libertadores 2019 - Flamengo x River Plate [Nov-23-2019] FOXSPORTS 1080i HDTV DD2.0 H.264 CELOBRAZiL-HDMania

    [​IMG]



    Format : MPEG-TS
    File size : 36.1 GiB
    Duration : 6 h 28 min
    Overall bit rate mode : Variable
    Overall bit rate : 13.3 Mb/s

    Video
    ID : 7728 (0x1E30)
    Menu ID : 7736 (0x1E38)
    Format : AVC
    Format/Info : Advanced Video Codec
    Format profile : High@L4
    Format settings : CABAC / 3 Ref Frames
    Format settings, CABAC : Yes
    Format settings, RefFrames : 3 frames
    Format settings, GOP : M=4, N=24
    Codec ID : 27
    Duration : 6 h 28 min
    Bit rate mode : Constant
    Bit rate : 12.7 Mb/s
    Width : 1 920 pixels
    Height : 1 080 pixels
    Display aspect ratio : 16:9
    Frame rate : 29.970 (30000/1001) FPS
    Color space : YUV
    Chroma subsampling : 4:2:0
    Bit depth : 8 bits
    Scan type : MBAFF
    Scan type, store method : Separated fields
    Scan order : Top Field First
    Bits/(Pixel*Frame) : 0.204
    Stream size : 33.6 GiB (93%)
    Color range : Limited
    Color primaries : BT.709
    Transfer characteristics : BT.709
    Matrix coefficients : BT.709

    Audio
    ID : 4609 (0x1201)
    Menu ID : 7736 (0x1E38)
    Format : AC-3
    Format/Info : Audio Coding 3
    Commercial name : Dolby Digital
    Codec ID : 129
    Duration : 6 h 28 min
    Bit rate mode : Constant
    Bit rate : 256 kb/s
    Channel(s) : 2 channels
    Channel layout : L R
    Sampling rate : 48.0 kHz
    Frame rate : 31.250 FPS (1536 SPF)
    Bit depth : 16 bits
    Compression mode : Lossy
    Stream size : 711 MiB (2%)
    Language : English
    Service kind : Complete Main


    Link(s):
    [​IMG]

    https://drive.google.com/file/d/1m78gmhIdiu6M5SFzkLVzXyPL8ddQgWde/view?usp=sharing
    https://drive.google.com/file/d/1DRcJBARDXHyrHSU3j0IKvfyJYsXGcBb9/view?usp=sharing
    https://drive.google.com/file/d/19zNE8ThO9_td_FwpiZ_Rmcg10hkjNSZ5/view?usp=sharing
    https://drive.google.com/file/d/1iEmkcPmt1gdCSEkCRVCJGm5VoxbiqjCl/view?usp=sharing


    [​IMG] MIRROR #01

    https://drive.google.com/file/d/1634E3hegHCuIQZGNdKl-x5mMFYLlP9vt/view?usp=sharing
    https://drive.google.com/file/d/1Ni52P2JdAzuxcYyttxp0zUGYEy8W44W2/view?usp=sharing
    https://drive.google.com/file/d/1TMdwMFk_J3Tkb3gLL3mE42Eh90WCq21_/view?usp=sharing
    https://drive.google.com/file/d/1tMJ6KXOZtmJ7VocIPgoKhNYBOpgJc5kE/view?usp=sharing


    [​IMG] MIRROR #02

    https://drive.google.com/file/d/1LE2A4-Vq8QKBsRYW2wmVOhBP-AbLb32w/view?usp=sharing
    https://drive.google.com/file/d/1XtaAu9hueq-JKlhcTOX_6kfqxLs9m1mm/view?usp=sharing
    https://drive.google.com/file/d/1B0Wepn6EHhSdMOZu-NTRlTvhM1jlWq7I/view?usp=sharing
    https://drive.google.com/file/d/1ksawWScrmMnpdiAoldQDn5GCiFhHNySA/view?usp=sharing


    [​IMG] MIRROR #03

    https://drive.google.com/file/d/1O6ndHFExiYlo5TkWktWzu-VD-lguxRzj/view?usp=sharing
    https://drive.google.com/file/d/1xzj_uszR3SEAwxfsXJocp7qTMpLfeEKa/view?usp=sharing
    https://drive.google.com/file/d/1iotOmPIXkXeuyC05KbTvyMV5mh2HrRtH/view?usp=sharing
    https://drive.google.com/file/d/1gMAZX2vUqnK7noRHDKS_ZduITawvmkZL/view?usp=sharing


    [​IMG] MIRROR #04

    https://drive.google.com/file/d/14fLttaRY_NdjIvFaBHs6SFA0-AuxvS7u/view?usp=sharing
    https://drive.google.com/file/d/1Q_UEoYg6AaXrK-CYszvC8s1rmsEhF4mj/view?usp=sharing
    https://drive.google.com/file/d/1cE_RIa8NfRvzp2c4EELubQzR1feihMMp/view?usp=sharing
    https://drive.google.com/file/d/1w5wcWteYpt7P-Vu5PakMmX_fZ2llTzd9/view?usp=sharing




    Password: celobrazil
     
  2. OP
    OP
    CELOBRAZiL
    Adorable

    CELOBRAZiL Vip on HQCC

    • V.I.P
    Joined:
    Jul 31, 2019
    Threads:
    223
    Messages:
    375
    Likes Received:
    208
    Location:
    Brazil
    This is real transmission of FOX SPORT channel with 6 hour and 28 minutes. I didn't crop the advertisement! This is include the show, the game, and celebration of championship! :)
     
Loading...

Share This Page

Loading...