1. Dismiss Notice
  2. Dismiss Notice

Lady Gaga - 911 MULTISHOWHD 1080i HDTV DD5.1 H.264 CELOBRAZiL-HDMania

Discussion in 'Performers video' started by CELOBRAZiL, Oct 17, 2020.

Random Thread
  1. CELOBRAZiL Vip on HQCC

    • V.I.P
    Joined:
    Jul 31, 2019
    Threads:
    528
    Messages:
    774
    Likes Received:
    378
    Location:
    Brazil
    Lady Gaga - 911 MULTISHOWHD 1080i HDTV DD5.1 H.264 CELOBRAZiL-HDMania

    [​IMG]



    Format : MPEG-TS
    File size : 436 MiB
    Duration : 4 min 33 s
    Overall bit rate mode : Variable
    Overall bit rate : 13.4 Mb/s

    Video
    ID : 1328 (0x530)
    Menu ID : 542 (0x21E)
    Format : AVC
    Format/Info : Advanced Video Codec
    Format profile : High@L4
    Format settings : CABAC / 4 Ref Frames
    Format settings, CABAC : Yes
    Format settings, Reference frames : 4 frames
    Codec ID : 27
    Duration : 4 min 33 s
    Bit rate : 12.1 Mb/s
    Width : 1 920 pixels
    Height : 1 080 pixels
    Display aspect ratio : 16:9
    Frame rate : 29.970 (30000/1001) FPS
    Color space : YUV
    Chroma subsampling : 4:2:0
    Bit depth : 8 bits
    Scan type : MBAFF
    Scan type, store method : Interleaved fields
    Scan order : Top Field First
    Bits/(Pixel*Frame) : 0.195
    Stream size : 396 MiB (91%)

    Audio #1
    ID : 1329 (0x531)
    Menu ID : 542 (0x21E)
    Format : AC-3
    Format/Info : Audio Coding 3
    Commercial name : Dolby Digital
    Codec ID : 129
    Duration : 4 min 33 s
    Bit rate mode : Constant
    Bit rate : 384 kb/s
    Channel(s) : 6 channels
    Channel layout : L R C LFE Ls Rs
    Sampling rate : 48.0 kHz
    Frame rate : 31.250 FPS (1536 SPF)
    Compression mode : Lossy
    Stream size : 12.5 MiB (3%)
    Language : Portuguese
    Service kind : Complete Main

    Audio #2
    ID : 7028 (0x1B74)
    Menu ID : 542 (0x21E)
    Format : MPEG Audio
    Format version : Version 1
    Format profile : Layer 2
    Codec ID : 3
    Duration : 4 min 33 s
    Bit rate mode : Constant
    Bit rate : 192 kb/s
    Channel(s) : 2 channels
    Sampling rate : 48.0 kHz
    Frame rate : 41.667 FPS (1152 SPF)
    Compression mode : Lossy
    Stream size : 6.26 MiB (1%)
    Language : English


    Link(s):
    [​IMG]

    https://drive.google.com/file/d/19rbidPvheOxr2ZIeGSLv-vg732vkOOVC/view?usp=sharing



    Password: celobrazil
     
    • Like Like x 1
Loading...

Share This Page

Loading...