1. Dismiss Notice
  2. Dismiss Notice

MTV Movie Awards [2014-04-13] (includes Pre-show) 1080i HDTV DD2.0 MPEG2-TrollHD

Discussion in 'TV Show video' started by CELOBRAZiL, Sep 9, 2019.

Random Thread
  1. CELOBRAZiL Well-Known Member

    • New Member
    Joined:
    Jul 31, 2019
    Threads:
    116
    Messages:
    240
    Likes Received:
    162
    Location:
    Brazil
    MTV Movie Awards [2014-04-13] (includes Pre-show) 1080i HDTV DD2.0 MPEG2-TrollHD

    [​IMG]



    Format : MPEG-TS
    File size : 13.0 GiB
    Duration : 1 h 53 min
    Overall bit rate mode : Variable
    Overall bit rate : 16.3 Mb/s
    Law rating : TV-14 (DLSV)

    Video
    ID : 530 (0x212)
    Menu ID : 1 (0x1)
    Format : MPEG Video
    Format version : Version 2
    Format profile : Main@High
    Format settings : CustomMatrix / BVOP
    Format settings, BVOP : Yes
    Format settings, Matrix : Custom
    Format settings, GOP : M=3, N=15
    Format settings, picture structure : Frame
    Codec ID : 2
    Duration : 1 h 53 min
    Bit rate mode : Variable
    Bit rate : 15.1 Mb/s
    Maximum bit rate : 16.0 Mb/s
    Width : 1 920 pixels
    Height : 1 080 pixels
    Display aspect ratio : 16:9
    Frame rate : 29.970 (30000/1001) FPS
    Color space : YUV
    Chroma subsampling : 4:2:0
    Bit depth : 8 bits
    Scan type : Interlaced
    Scan order : Top Field First
    Compression mode : Lossy
    Bits/(Pixel*Frame) : 0.244
    Time code of first frame : 00:00:00;00
    Time code source : Group of pictures header
    GOP, Open/Closed : Open
    GOP, Open/Closed of first frame : Closed
    Stream size : 12.0 GiB (93%)

    Audio
    ID : 529 (0x211)
    Menu ID : 1 (0x1)
    Format : AC-3
    Format/Info : Audio Coding 3
    Commercial name : Dolby Digital
    Codec ID : 129
    Duration : 1 h 53 min
    Bit rate mode : Constant
    Bit rate : 384 kb/s
    Channel(s) : 2 channels
    Channel layout : L R
    Sampling rate : 48.0 kHz
    Frame rate : 31.250 FPS (1536 SPF)
    Bit depth : 16 bits
    Compression mode : Lossy
    Delay relative to video : 9 ms
    Stream size : 313 MiB (2%)
    Language : English
    Service kind : Complete Main

    Text #1
    ID : 530 (0x212)-CC1
    Menu ID : 1 (0x1)
    Format : EIA-608
    Muxing mode : A/53 / DTVCC Transport
    Muxing mode, more info : Muxed in Video #1
    Duration : 1 h 53 min
    Bit rate mode : Constant
    Stream size : 0.00 Byte (0%)
    CaptionServiceName : CC1

    Text #2
    ID : 530 (0x212)-1
    Menu ID : 1 (0x1)
    Format : EIA-708
    Muxing mode : A/53 / DTVCC Transport
    Muxing mode, more info : Muxed in Video #1
    Duration : 1 h 53 min
    Bit rate mode : Constant
    Stream size : 0.00 Byte (0%)


     
Loading...

Share This Page

Loading...