1. Dismiss Notice
  2. Dismiss Notice

Rihanna - T in the Park [Jul-13-2013] FEED 1080i 39Mbps 4-2-2 MPA2.0 H.264-aB

Discussion in 'Performers video' started by CELOBRAZiL, Dec 7, 2019.

Random Thread
  1. CELOBRAZiL Vip on HQCC

    • V.I.P
    Joined:
    Jul 31, 2019
    Threads:
    452
    Messages:
    661
    Likes Received:
    316
    Location:
    Brazil
    Rihanna - T in the Park [Jul-13-2013] FEED 1080i 39Mbps 4-2-2 MPA2.0 H.264-aB

    [​IMG]



    Format : MPEG-TS
    File size : 4.37 GiB
    Duration : 15 min 30 s
    Overall bit rate mode : Variable
    Overall bit rate : 40.3 Mb/s

    Video
    ID : 412 (0x19C)
    Menu ID : 1 (0x1)
    Format : AVC
    Format/Info : Advanced Video Codec
    Format profile : High 4:2:2@L4.1
    Format settings : CABAC / 4 Ref Frames
    Format settings, CABAC : Yes
    Format settings, RefFrames : 4 frames
    Codec ID : 27
    Duration : 15 min 29 s
    Bit rate : 38.1 Mb/s
    Width : 1 920 pixels
    Height : 1 080 pixels
    Display aspect ratio : 16:9
    Frame rate : 25.000 FPS
    Color space : YUV
    Chroma subsampling : 4:2:2
    Bit depth : 10 bits
    Scan type : Interlaced
    Scan type, store method : Separated fields
    Scan order : Top Field First
    Bits/(Pixel*Frame) : 0.734
    Stream size : 4.12 GiB (94%)
    Color range : Limited
    Color primaries : BT.709
    Transfer characteristics : BT.709
    Matrix coefficients : BT.709

    Audio
    ID : 750 (0x2EE)
    Menu ID : 1 (0x1)
    Format : MPEG Audio
    Format version : Version 1
    Format profile : Layer 2
    Format settings : Dual mono
    Codec ID : 4
    Duration : 15 min 30 s
    Bit rate mode : Constant
    Bit rate : 256 kb/s
    Channel(s) : 2 channels
    Sampling rate : 48.0 kHz
    Frame rate : 41.667 FPS (1152 SPF)
    Compression mode : Lossy
    Delay relative to video : -652 ms
    Stream size : 28.4 MiB (1%)
    Language : English

    Menu
    ID : 228 (0xE4)
    Menu ID : 1 (0x1)
    List : 412 (0x19C) (AVC) / 750 (0x2EE) (MPEG Audio, English)
    Language : / English
    Maximum bit rate : 200000000

    :: SETLiST ::

    What Now
    Stay
    Diamonds


    Rihanna - T in the Park 2013
    Balado, Kinross, Scotland - July 13th, 2013

    NOTE: Video is 10-bit 4:2:2 H.264. Hardware playback or GPU acceleration is not possible for this profile. A quad core CPU is recommended for smooth playback.

    File Size Processed: 4.37 GB, Play Time: 00h:15m:29s
    50.03 FPS (Average), 39.13 Mbps (Average).
    MPEG Audio.
    0 of 0 audio frames found with errors.
    0.000000 seconds of audio timestamp gaps.


    Link(s):
    [​IMG]

    https://drive.google.com/file/d/1TSXbgfNCQAYvlBwpwoWHRwu61C4Cnyy3/view?usp=sharing


    [​IMG] MIRROR #01

    https://drive.google.com/file/d/1eXhigNQ9iNzooBanGXT4Izb6IrCigiN8/view?usp=sharing


    [​IMG] MIRROR #02

    https://drive.google.com/file/d/1Q761g71pysWLSFUdy2TqJ4amDNQoMDNr/view?usp=sharing


    [​IMG] MIRROR #03

    https://drive.google.com/file/d/1HACMjhEhH3-6bQ3NhPKRS2DQIHOL8ByX/view?usp=sharing


    [​IMG] MIRROR #04

    https://drive.google.com/file/d/1TmlOCwPJiWkHNsRb5hW0p42NdQVRyQsM/view?usp=sharing


    :: ZIPPYSHARE.COM ::




    :: FEX.NET ::

    https://fex.net/s/mkok3nx



    Password: celobrazil
     
    Last edited: Dec 7, 2019
    • Like Like x 1
  2. OP
    OP
    CELOBRAZiL
    Adorable

    CELOBRAZiL Vip on HQCC

    • V.I.P
    Joined:
    Jul 31, 2019
    Threads:
    452
    Messages:
    661
    Likes Received:
    316
    Location:
    Brazil
    Added FEX.NET link! :)
     
  3. stel Vip on HQCC

    • V.I.P
    Joined:
    Aug 4, 2019
    Threads:
    4
    Messages:
    332
    Likes Received:
    294
    Location:
    Greece
    thanks, for sharing!!
     
    • Like Like x 1
  4. kmfan Super VIP on HQCC

    • Super VIP
    Joined:
    Jul 10, 2019
    Threads:
    1,744
    Messages:
    2,149
    Likes Received:
    1,354
    Location:
    EU
    Thank you! :)
     
    • Like Like x 1
Loading...

Share This Page

Loading...