1. Dismiss Notice
  2. Dismiss Notice

Shakira - She Wolf + Give It All to Me - NBA All Stars TNTHD 1080i HDTV DD5.1 MPEG2

Discussion in 'Performers video' started by CELOBRAZiL, Jan 14, 2020.

Random Thread
  1. CELOBRAZiL Vip on HQCC

    • V.I.P
    Joined:
    Jul 31, 2019
    Threads:
    236
    Messages:
    392
    Likes Received:
    215
    Location:
    Brazil
    Shakira - She Wolf + Give It All to Me - NBA All Stars TNTHD 1080i HDTV DD5.1 MPEG2

    [​IMG]



    Format : MPEG-PS
    File size : 1.05 GiB
    Duration : 8 min 30 s
    Overall bit rate mode : Variable
    Overall bit rate : 17.7 Mb/s
    Movie name : NBA All Star Game
    Law rating : None

    Video
    ID : 224 (0xE0)
    Format : MPEG Video
    Format version : Version 2
    Format profile : Main@High
    Format settings : CustomMatrix / BVOP
    Format settings, BVOP : Yes
    Format settings, Matrix : Custom
    Format settings, GOP : M=3, N=15
    Format settings, picture structure : Frame
    Duration : 8 min 30 s
    Bit rate mode : Variable
    Bit rate : 16.9 Mb/s
    Maximum bit rate : 25.0 Mb/s
    Width : 1 920 pixels
    Height : 1 080 pixels
    Display aspect ratio : 16:9
    Frame rate : 29.970 (30000/1001) FPS
    Standard : Component
    Color space : YUV
    Chroma subsampling : 4:2:0
    Bit depth : 8 bits
    Scan type : Interlaced
    Scan order : Top Field First
    Compression mode : Lossy
    Bits/(Pixel*Frame) : 0.272
    Time code of first frame : 00:00:00;00
    Time code source : Group of pictures header
    GOP, Open/Closed : Open
    GOP, Open/Closed of first frame : Closed
    Stream size : 1.00 GiB (95%)
    Color primaries : BT.709
    Transfer characteristics : BT.709
    Matrix coefficients : BT.709

    Audio
    ID : 189 (0xBD)-128 (0x80)
    Format : AC-3
    Format/Info : Audio Coding 3
    Commercial name : Dolby Digital
    Muxing mode : DVD-Video
    Duration : 8 min 30 s
    Bit rate mode : Constant
    Bit rate : 448 kb/s
    Channel(s) : 6 channels
    Channel layout : L R C LFE Ls Rs
    Sampling rate : 48.0 kHz
    Frame rate : 31.250 FPS (1536 SPF)
    Bit depth : 16 bits
    Compression mode : Lossy
    Stream size : 27.3 MiB (3%)
    Service kind : Complete Main

    Text #1
    ID : 224 (0xE0)-CC1
    Format : EIA-608
    Muxing mode : A/53 / DTVCC Transport
    Muxing mode, more info : Muxed in Video #1
    Duration : 8 min 30 s
    Bit rate mode : Constant
    Stream size : 0.00 Byte (0%)
    CaptionServiceName : CC1

    Text #2
    ID : 224 (0xE0)-CC3
    Format : EIA-608
    Muxing mode : A/53 / DTVCC Transport
    Muxing mode, more info : Muxed in Video #1
    Duration : 8 min 30 s
    Bit rate mode : Constant
    Stream size : 0.00 Byte (0%)
    CaptionServiceName : CC3


    Link(s):
    [​IMG]

    https://drive.google.com/file/d/1YBsZkR7q5KQtlKIDj-7p3YPoTZ5B2zJx/view?usp=sharing


    [​IMG] MIRROR #01

    https://drive.google.com/file/d/1qhjoCmgSSV0sXGr5SRoGgCrK5rBYvAqk/view?usp=sharing


    [​IMG] MIRROR #02

    https://drive.google.com/file/d/1nhjdSx-OAdXFKrMpTRf7DOulrVjlGPkr/view?usp=sharing


    [​IMG] MIRROR #03

    https://drive.google.com/file/d/1uGV1CixBoNYDpv9U54pH6xJV4ziDRsEZ/view?usp=sharing


    [​IMG] MIRROR #04

    https://drive.google.com/file/d/1FueLCzowE-tNUNQj660LnW9Y40ssFbx_/view?usp=sharing


    :: ZIPPYSHARE.COM ::




    :: FEX.NET ::





    Password: celobrazil
     
    • Like Like x 2
  2. stel Vip on HQCC

    • V.I.P
    Joined:
    Aug 4, 2019
    Threads:
    4
    Messages:
    250
    Likes Received:
    222
    Location:
    Greece
    thanks, for sharing!!
     
    • Like Like x 1
  3. kmfan Vip on HQCC

    • V.I.P
    Joined:
    Jul 10, 2019
    Threads:
    992
    Messages:
    1,238
    Likes Received:
    768
    Location:
    EU
    Thank you! :)
     
    • Like Like x 1
  4. mateo05 Vip on HQCC

    • V.I.P
    Joined:
    Jul 9, 2018
    Threads:
    105
    Messages:
    128
    Likes Received:
    338
    Location:
    Venezuela
    Thanks! :Love (10):
     
    • Like Like x 1
Loading...

Share This Page

Loading...