1. Dismiss Notice
  2. Dismiss Notice

Teen Choice Awards 2019 - Red Carpet BACKHAUL 720p HDTV MPA2.0 H.264-TrollHD

Discussion in 'TV Show video' started by CELOBRAZiL, Aug 13, 2019.

Random Thread
  1. CELOBRAZiL Well-Known Member

    • New Member
    Joined:
    Jul 31, 2019
    Threads:
    84
    Messages:
    132
    Likes Received:
    78
    Location:
    Brazil
    Teen Choice Awards 2019 - Red Carpet BACKHAUL 720p HDTV MPA2.0 H.264-TrollHD

    [​IMG]



    Format : Matroska
    Format version : Version 4
    File size : 12.5 GiB
    Duration : 55 min 19 s
    Overall bit rate : 32.4 Mb/s
    Encoded date : UTC 2019-08-12 04:34:31
    Writing application : mkvmerge v30.0.0 ('Interstellar') 64-bit
    Writing library : libebml v1.3.6 + libmatroska v1.4.9

    Video
    ID : 1
    Format : AVC
    Format/Info : Advanced Video Codec
    Format profile : High 4:2:2@L4.1
    Format settings : CABAC / 6 Ref Frames
    Format settings, CABAC : Yes
    Format settings, RefFrames : 6 frames
    Format settings, GOP : M=4, N=32
    Codec ID : V_MPEG4/ISO/AVC
    Duration : 55 min 19 s
    Bit rate : 32.0 Mb/s
    Width : 1 280 pixels
    Height : 720 pixels
    Display aspect ratio : 16:9
    Frame rate mode : Constant
    Frame rate : 59.940 (60000/1001) FPS
    Color space : YUV
    Chroma subsampling : 4:2:2
    Bit depth : 8 bits
    Scan type : Progressive
    Bits/(Pixel*Frame) : 0.579
    Stream size : 12.4 GiB (99%)
    Language : English
    Default : Yes
    Forced : No
    Color range : Limited
    Color primaries : BT.709
    Transfer characteristics : BT.709
    Matrix coefficients : BT.709

    Audio
    ID : 2
    Format : MPEG Audio
    Format version : Version 1
    Format profile : Layer 2
    Codec ID : A_MPEG/L2
    Codec ID/Hint : MP2
    Duration : 55 min 19 s
    Bit rate mode : Constant
    Bit rate : 384 kb/s
    Channel(s) : 2 channels
    Sampling rate : 48.0 kHz
    Frame rate : 41.667 FPS (1152 SPF)
    Compression mode : Lossy
    Stream size : 152 MiB (1%)
    Language : English
    Default : Yes
    Forced : No


     
    • Like Like x 1
Loading...

Share This Page

Loading...