1. Dismiss Notice
  2. Dismiss Notice

The Killers - Glastonbury 2007 FEED 1080i 40Mbps MPA2.0 MPEG2-aB

Discussion in 'Performers video' started by CELOBRAZiL, Aug 13, 2019.

Random Thread
  1. CELOBRAZiL Well-Known Member

    • New Member
    Joined:
    Jul 31, 2019
    Threads:
    84
    Messages:
    132
    Likes Received:
    78
    Location:
    Brazil
    The Killers - Glastonbury 2007 FEED 1080i 40Mbps MPA2.0 MPEG2-aB

    [​IMG]



    Format : MPEG-PS
    File size : 8.85 GiB
    Duration : 30 min 55 s
    Overall bit rate mode : Variable
    Overall bit rate : 41.0 Mb/s
    Writing library : (c)2004 Saar Software

    Video
    ID : 224 (0xE0)
    Format : MPEG Video
    Format version : Version 2
    Format profile : Main@High
    Format settings : CustomMatrix / BVOP
    Format settings, BVOP : Yes
    Format settings, Matrix : Custom
    Format settings, GOP : M=3, N=12
    Format settings, picture structure : Frame
    Duration : 30 min 55 s
    Bit rate mode : Variable
    Bit rate : 39.9 Mb/s
    Maximum bit rate : 40.5 Mb/s
    Width : 1 920 pixels
    Height : 1 080 pixels
    Display aspect ratio : 16:9
    Frame rate : 25.000 FPS
    Color space : YUV
    Chroma subsampling : 4:2:0
    Bit depth : 8 bits
    Scan type : Interlaced
    Scan order : Top Field First
    Compression mode : Lossy
    Bits/(Pixel*Frame) : 0.770
    Time code of first frame : 00:00:00:00
    Time code source : Group of pictures header
    GOP, Open/Closed : Open
    GOP, Open/Closed of first frame : Closed
    Stream size : 8.62 GiB (97%)
    Writing library : (c)2004 Saar Software

    Audio
    ID : 192 (0xC0)
    Format : MPEG Audio
    Format version : Version 1
    Format profile : Layer 2
    Duration : 30 min 55 s
    Bit rate mode : Constant
    Bit rate : 256 kb/s
    Channel(s) : 2 channels
    Sampling rate : 48.0 kHz
    Frame rate : 41.667 FPS (1152 SPF)
    Compression mode : Lossy
    Stream size : 56.6 MiB (1%)


     
Loading...

Share This Page

Loading...